Help - Search - Members - Calendar
Full Version: Brant Bjork - Mankind Woman (2018)
Metal Area - Extreme Music Portal > Releases Area / Релизы > New Releases > Unformat R:
TDM


*Artist: Brant Bjork
*Album: Mankind Woman
*Year: 2018
*Genre: Stoner Rock
*Country: United States
*Format: mp3@CBR320kbps
*Size: 90MB

Tracklist:
1 Chocolatize 2:35
2 Lazy Wizards 2:57
3 Pisces 3:54
4 Charlie Gin 2:11
5 Mankind Woman 4:32
6 Swagger & Sway 4:02
7 Somebody 4:43
8 Pretty Hairy 3:53
9 Brand New Old Times 2:05
10 1968 3:15
11 Nation of Indica 4:49
******************************
Total playing time: 38:56



Technical info

Input File: 06 - Swagger & Sway.mp3
Channels : 2
Sample Rate : 44100
Precision : 16-bit
Duration : 00:04:02.41 = 10690105 samples = 18180.5 CDDA sectors
File Size : 9.79M
Bit Rate : 323k
Sample Encoding: MPEG audio (layer I, II or III)
Comments :
Title=Swagger & Sway
Artist=Brant Bjork
Album=Mankind Woman
Tracknumber=6
Year=2018
Genre=Psychedelic | Stoner Rock



[ Hidden Text ]
vosmidesijatye
Отличный дядя.

Хендрикса почитает.

Даже можно сказать культ в кругах ценителей подобной музыки.
TDM
ЦИТАТА(vosmidesijatye @ Jun 30 2019, 23:35:39) *
Отличный дядя.

да тут и альбом убойнейший pray.gif
vosmidesijatye
Ну мне больше понравился его следующий - Jaqoozi smile3.gif
TDM
Мне наоборот, тут - шлягер на шлягере, там - порожняк.
vosmidesijatye
ЦИТАТА(TDM @ Jul 1 2019, 10:26:19) *
Мне наоборот, тут - шлягер на шлягере, там - порожняк.


https://b.radikal.ru/b13/1907/03/6821c4cafe6d.jpg
Krosis
А мне чёто не вставило, более тягучий стонер люблю.
vosmidesijatye
Ща переслушиваю - услада для ушей. pray.gif
This is a "lo-fi" version of our main content. To view the full version with more information, formatting and images, please click here.
Invision Power Board © 2001-2020 Invision Power Services, Inc.