Help - Search - Members - Calendar
Full Version: Бахыт-Компот - Раздень Меня По Телефону (1996)
Metal Area - Extreme Music Portal > Releases Area / Релизы > New Releases > Unformat R:
vosmidesijatye


*Artist: Бахыт-Компот
*Album: Раздень Меня По Телефону
*Year: 1996
*Genre: Punk Rock
*Country: Russian Federation
*Format: mp3@CBR320kbps
*Size: 120MB

Tracklist:
1. Раздень меня по телефону
2. Хуанита
3. Изабель
4. Дьявольская месса
5. Твоё ''нет''
6. Козаче
7. Фашистка
08. Я шагаю по Москве
09. Лола
10. Бухгалтер Иванов
11. Феличита
12. Империя
13. Извини, дорогая (bonus track)
******************************
Total playing time: 52:38



Technical info

Input File: 01 - Раздень меня по телефону.mp3
Channels : 2
Sample Rate : 44100
Precision : 16-bit
Duration : 00:03:47.67 = 10040203 samples = 17075.2 CDDA sectors
File Size : 9.26M
Bit Rate : 325k
Sample Encoding: MPEG audio (layer I, II or III)
Comments :
Title=Раздень меня по телефону
Artist=Бахыт-Компот
Album=Раздень меня по телефону
Tracknumber=01
Year=1996
Genre=Rock



[ Hidden Text ]
vosmidesijatye
И это также классический альбом. Хит на хите.

Замечу, что обложка, если вглядеться, напоминает как обложку Алисы 1993 года, так и некоторые арты Сектора.
Aresson
Из тех песен, что слышал, еличита забавная, остальное параша какая-то
Amadeus
И покуда в этом замке длится дьявольская месса
Ты со мной моя принцесса ты со мной моя принцесса banana.gif banana.gif banana.gif
vam1972
ЦИТАТА(Amadeus @ Jul 26 2019, 18:22:52) *
И покуда в этом замке длится дьявольская месса
Ты со мной моя принцесса ты со мной моя принцесса banana.gif banana.gif banana.gif

Великолепная лирика страдающего абстинентным синдромом Степанцова 22.gif
Amadeus
ЦИТАТА(vam1972 @ Jul 27 2019, 14:30:11) *
Великолепная лирика страдающего абстинентным синдромом Степанцова 22.gif


Она без шуток великолепная)
vam1972
ЦИТАТА(Amadeus @ Jul 27 2019, 17:26:54) *
Она без шуток Степанцова )

И не надо мне рассказывать!
Пушкин и Есенин писАли великолепно. А этот лепит с перепою, выставляя это как достоинство. И как музыкант он - так себе.
Amadeus
ЦИТАТА(vam1972 @ Jul 27 2019, 18:30:51) *
И не надо мне рассказывать!
Пушкин и Есенин писАли великолепно. А этот лепит с перепою, выставляя это как достоинство. И как музыкант он - так себе.


Возьмем его как эталон
в палату ямбов и хореев,
и с этим самым эталоном мы будем всех соизмерять 23.gif

Faust_Vulkan_16
Охоту на самку человека запиливай.
vosmidesijatye
ЦИТАТА(Faust_Vulkan_16 @ Jul 28 2019, 17:28:36) *
Охоту на самку человека запиливай.


Уже в модерке, нащальникин bye.gif
This is a "lo-fi" version of our main content. To view the full version with more information, formatting and images, please click here.
Invision Power Board © 2001-2019 Invision Power Services, Inc.