Help - Search - Members - Calendar
Full Version: Troum & Monocube - Contemplator Caeli [collaboration] (2019)
Metal Area - Extreme Music Portal > Releases Area / Релизы > New Releases > Unformat R:
Un4given


*Artist: Troum & Monocube
*Album: Contemplator Caeli [collaboration]
*Year: 2019
*Genre: Ambient | Drone
*Country: Germany | Ukraine
*Format: mp3@CBR320kbps
*Size: 83MB

Tracklist:
1. Circularis et Perpetua 08:00
2. Precessio Aequinoctiorum 10:15
3. Stellae Errantis 08:04
4. Digressio 09:20
******************************
Total playing time: 35:39



Extended info
Мягкий гитарный дроун, возвращающий во времена Maeror Tri (Venenum)


Technical info

Input File: 01 Circularis et Perpetua.mp3
Channels : 2
Sample Rate : 44100
Precision : 16-bit
Duration : 00:08:00.68 = 21198076 samples = 36051.1 CDDA sectors
File Size : 19.3M
Bit Rate : 322k
Sample Encoding: MPEG audio (layer I, II or III)
Comments :
Title=Circularis et Perpetua
Artist=MONOCUBE & TROUM
Album=Contemplator Caeli (collab. with MONOCUBE)
Tracknumber=1
Year=2019
Genre=Drone



[ Hidden Text ]
recber
Ссылка не рабочая можно презалить? bye.gif
Un4given
Не, чувак из Monocube бдит, как бы его говнецо не украли, а ему чужое здесь можно качать smile1.gif
Hell_Is_Here
ЦИТАТА(recber @ Jul 10 2019, 22:06:35) *
Ссылка не рабочая можно презалить? bye.gif

+1
This is a "lo-fi" version of our main content. To view the full version with more information, formatting and images, please click here.
Invision Power Board © 2001-2019 Invision Power Services, Inc.