Help - Search - Members - Calendar
Full Version: Stigmata - Фараоны [single] (2019)
Metal Area - Extreme Music Portal > Releases Area / Релизы > New Releases > Unformat R:
vosmidesijatye


*Artist: Stigmata
*Album: Фараоны [single]
*Year: 2019
*Genre: Metalcore
*Country: Russian Federation
*Format: mp3@CBR320kbps
*Size: 8MB

Tracklist:
1. Фараоны 03:18
******************************
Total playing time: 3:18



Technical info

Input File: 01 - Фараоны.mp3
Channels : 2
Sample Rate : 44100
Precision : 16-bit
Duration : 00:03:18.07 = 8734931 samples = 14855.3 CDDA sectors
File Size : 8.22M
Bit Rate : 332k
Sample Encoding: MPEG audio (layer I, II or III)
Comments :
Title=Фараоны
Artist=Stigmata
Album=Фараоны
Tracknumber=1
Year=2019
Genre=Rock
Discnumber=1



[ Hidden Text ]
vosmidesijatye
Молодёжно.
6666666
Зарубка.
Vakhanal
Проблема российских групп в том, что вместо создания творчества, своей движухи и какой-то уникальной музыкальной атмосферы, как в тех же ненавистных США, артисты занимаются или тотальным подражанием (подражание 90м, пост-панку, раннему русскому року) или погоней за хайпом и сиюминутными модными течениями у молодежи, даже если этим артистам уже далеко за 30. Причем вся эта погоня за модой заканчивается неудачно, потому что "старперы" просто не могут уловить нужное время. Ждем теперь, когда какие нибудь Аматори, или кто там еще есть, запишут трек про тик ток, когда популярность того уже начнет спадать.
6666666
Я подкатил Вакханалу лодку.
Aresson
ЦИТАТА(Vakhanal @ 10th July 2019 - 12:37:41) *
про тик ток, когда популярность того уже начнет спадать.

по ходу она уже спала, не успев вырасти до той степени, чтобы я понял, о чём речь.

З.ы. В песне металлики "франтик" в припеве было про тик ток чегой-то
assonik
Никогда не понимал фапа на них
6666666
Ещё одна зарубка.
This is a "lo-fi" version of our main content. To view the full version with more information, formatting and images, please click here.
Invision Power Board © 2001-2020 Invision Power Services, Inc.