Help - Search - Members - Calendar
Full Version: ДДТ - Галя Ходи (2018)
Metal Area - Extreme Music Portal > Releases Area / Релизы > New Releases > Unformat R:
vosmidesijatye


*Artist: ДДТ
*Album: Галя Ходи
*Year: 2018
*Genre: Rock
*Country: Russian Federation
*Format: mp3@CBR320kbps
*Size: 132MB

Tracklist:
1. Альтернатива
2. Если
3. Уездный город
4. Звезда-старуха
5. Мертвый человек
6. Вокзал
7. Русская весна
8. Чай
9. Галя ходи
10. Белый дым
11. Балтийское море
12. Степной Гамлет
13. С глазами Блока
14. Любовь не пропала
******************************
Total playing time: 58:49



Technical info

Input File: 01 Альтернатива.mp3
Channels : 2
Sample Rate : 44100
Precision : 16-bit
Duration : 00:04:29.39 = 11880011 samples = 20204.1 CDDA sectors
File Size : 10.8M
Bit Rate : 320k
Sample Encoding: MPEG audio (layer I, II or III)
Comments :
Title=Àëüòåðíàòèâà
Artist=ÄÄÒ
Album=Ãàëÿ õîäè
Tracknumber=1
Year=2018
Genre=17



[ Hidden Text ]
vosmidesijatye
Приятный альбом. 20.gif
SAPOGi
Дельфин в очках.

vosmidesijatye
ЦИТАТА(SAPOGi @ Aug 5 2019, 12:53:53) *
Дельфин в очках.


https://b.radikal.ru/b14/1908/2a/27d7cbeac8ea.jpg
Krosis
Помню, предыдущий альбом "Иначе" меня сильно удивил. Ожидал чего-то типично русрокового, а оказался весьма интересный альбом, с кучей современных и нестандартных ходов. Потом довелось побывать на концерте с презенацией этого альбома, где они его отыграли полностью в альбомном порядке - было круто, мне понравилось. Особенно учитывая, что я русрок вообще не слушаю, кроме выборочных столетних песен. "Кризис" дак вообще ураганный трек, неожиданный для данной группы.

Шевчук сделал правильный ход конём, набрал молодых музыкантов и фигачит вполне неплохой современный рокешник с примесями, а его сотоварищи-одногодки до сих пор клепают то, что делали двадцать пять лет назад.

Так что этот я может даже послушаю.
vosmidesijatye
ЦИТАТА(Krosis @ Aug 5 2019, 13:03:23) *
а его сотоварищи-одногодки до сих пор клепают то, что делали двадцать пять лет назад.


Особенно пенсия Шахрин которого в связи с его недавними высказываниями я стал еще меньше уважать, хотя эта смешная группа никогда не качала, их песни это бред полнейший. и мещанщина.

Одна только Аргентина Ямайка чего стоит - гимн толстопузых алконавтов низшего класса, смотрящих дворовый футбол 1488.gif
This is a "lo-fi" version of our main content. To view the full version with more information, formatting and images, please click here.
Invision Power Board © 2001-2019 Invision Power Services, Inc.