Help - Search - Members - Calendar
Full Version: Miles Davis - On The Corner (1972)
Metal Area - Extreme Music Portal > Releases Area / Релизы > New Releases > Unformat R:
vosmidesijatye


*Artist: Miles Davis
*Album: On The Corner
*Year: 1972
*Genre: Jazz
*Country: United States
*Format: mp3@CBR320kbps
*Size: 122MB

Tracklist:
1. Medley
2. Black Satin
3. One And One
4. Helen Butte - Mr. Freedom X
******************************
Total playing time: 54:51



Technical info

Input File: 01. Medley.mp3
Channels : 2
Sample Rate : 44100
Precision : 16-bit
Duration : 00:19:59.33 = 52890233 samples = 89949.4 CDDA sectors
File Size : 48.0M
Bit Rate : 320k
Sample Encoding: MPEG audio (layer I, II or III)
Comments :
Title=Medley
Artist=Miles Davis
Album=1972 - On The Corner
Tracknumber=01
Year=1972
Genre=Jazz



[ Hidden Text ]
Borderline1991
I listened. I mostly didn't like the sound because it's too experimental, didn't like the tempo too - too fast and even disturbing. Everything is on many places over the top and everywhere, too much going on at the same time. Some parts are very good.
vosmidesijatye
Brilliant.
Yarri
John Coltrane - Blue Train!
vosmidesijatye
ЦИТАТА(Yarri @ Jul 12 2019, 19:47:50) *
John Coltrane - Blue Train!


За сабж че скажешь?
Yarri
Ну я Дэвиса слушал, конечно, но потом снёс. Надоело, что ли. А вот Трейн не отпускает.
vosmidesijatye
ЦИТАТА(Borderline1991 @ Jul 12 2019, 19:23:50) *
I listened. I mostly didn't like the sound because it's too experimental, didn't like the tempo too - too fast and even disturbing. Everything is on many places over the top and everywhere, too much going on at the same time. Some parts are very good.


That"s the way he was playing at that period of his career.
vam1972
ЦИТАТА(Yarri @ Jul 13 2019, 15:53:51) *
А вот Трейн не отпускает.

Хар-роший был парравоз! bye.gif
vosmidesijatye
ЦИТАТА(Yarri @ Jul 13 2019, 16:53:51) *
Ну я Дэвиса слушал, конечно, но потом снёс. Надоело, что ли. А вот Трейн не отпускает.


Ну Колтрейн в целом и мне ближе.

Хотя иногда прям ну очень хочется послушать Майлза.

Этот альбом, кстати, не самый характерный для него, так скажем.
vosmidesijatye
Руслан hammer, мимо не проходи. smile1.gif
babanguida
9.gif 9.gif 9.gif
This is a "lo-fi" version of our main content. To view the full version with more information, formatting and images, please click here.
Invision Power Board © 2001-2019 Invision Power Services, Inc.