Help - Search - Members - Calendar
Full Version: Benedict Crow - Benedict Crow (2019)
Metal Area - Extreme Music Portal > Releases Area / Релизы > Archive
avkruchinin


*Artist: Benedict Crow
*Album: Benedict Crow
*Year: 2019
*Genre: Hard Rock/Heavy Metal
*Country: Spain
*Format: mp3@CBR320kbps
*Size: 100MB

Tracklist:
1.Benedict Crow 06:27
2.Dementia Jaws 04:00
3.Time to Kill 03:32
4.Soul Stealer 04:52
5.Facing The Abyss 07:16
6.What Have We Done? 06:02
7.Huggin & Munnin 05:03
8.Lemniscate 08:18
******************************
Total playing time: 45:30



Technical info

Input File: 04. Soul Stealer.mp3
Channels : 2
Sample Rate : 44100
Precision : 16-bit
Duration : 00:04:52.33 = 12891709 samples = 21924.7 CDDA sectors
File Size : 11.8M
Bit Rate : 323k
Sample Encoding: MPEG audio (layer I, II or III)
Comments :
Title=Soul Stealer
Artist=Benedict Crow
Album=Benedict Crow
Tracknumber=4/8
Year=2019
Genre=17
Discnumber=1/1



[ Hidden Text ]
avkruchinin
Дебютник.

Мне эти гишпанцы попались совершенно случайно, послушал и понравились, чего и вам желаю.

Харды значительно больше, нежели хэви, можно даже сказать, что это хард с элементами/вкраплениями хэви.
Andrew


ЦИТАТА(avkruchinin @ Jul 14 2019, 04:15:50) *
с элементами/вкраплениями хэви.

hmm.gif
Олд скул. Причем, как по мне, так ближе к 70ым Art/Progressive
AHBAnep
Да нет, больше по Stoner Rock, артами, прогами, хардой и не пахнет.
Чисто неформат.
avkruchinin
ЦИТАТА(Andrew @ Jul 14 2019, 22:30:07) *
hmm.gif
Олд скул. Причем, как по мне, так ближе к 70ым Art/Progressive

Ух ты, как Pink Floyd почти fear.gif

Я как бы не парился, списал с инета стиль 1488.gif

Как по мне лишь бы нравилось.

А так не вопрос, придём к единому мнению, поменяю в шапке.

Моя версия (по мотивам аэстетика): Occult Stoner Rock/Hard Rock c инфлюациями HMR, кто больше? crazy.gif
Andrew
ЦИТАТА(avkruchinin @ Jul 15 2019, 09:09:42) *
Как по мне лишь бы нравилось.

m0114.gif
This is a "lo-fi" version of our main content. To view the full version with more information, formatting and images, please click here.
Invision Power Board © 2001-2019 Invision Power Services, Inc.