Help - Search - Members - Calendar
Full Version: Combichrist - One Fire (2019)
Metal Area - Extreme Music Portal > Releases Area / Релизы > New Releases > Unformat R:
vosmidesijatye


*Artist: Combichrist
*Album: One Fire
*Year: 2019
*Genre: Ebm/Industrial
*Country: Norway
*Format: mp3@CBR320kbps
*Size: 121MB

Tracklist:
1. Intro 01:03
2. Hate Like Me 04:15
3. Broken United 04:06
4. Guns At Last Dawn (Feat. Burton C. Bell) 02:53
5. Lobotomy 04:44
6. One Fire 04:00
7. Bottle Of Pain 04:10
8. 2045 04:10
9. Interlude 01:09
10. Understand 05:34
11. California Über Alles 03:19
12. Last Days Under The Sun 05:58
13. The Other 05:44
******************************
Total playing time: 51:05



Technical info

Input File: 02. Hate Like Me.mp3
Channels : 2
Sample Rate : 44100
Precision : 16-bit
Duration : 00:04:15.29 = 11258069 samples = 19146.4 CDDA sectors
File Size : 10.3M
Bit Rate : 323k
Sample Encoding: MPEG audio (layer I, II or III)
Comments :
Title=Hate Like Me
Artist=Combichrist
Album=One Fire (Limited Fan Box Edition) CD1
Tracknumber=2
Year=2019
Genre=EBM / TBM / Industrial Metal



[ Hidden Text ]
vosmidesijatye
Такой себе комбикормец.
plfan93
ЦИТАТА(vosmidesijatye @ Jul 18 2019, 22:40:28) *
Такой себе комбикормец.

В духе предыдущего?
vosmidesijatye
ЦИТАТА(plfan93 @ Jul 18 2019, 19:53:18) *
В духе предыдущего?


Это первый релиз, который я послушал, не могу судить за остальные.
sethurius
vosmidesijatye, залей Сarpenter Brut лучше
vosmidesijatye
ЦИТАТА(sethurius @ Jul 18 2019, 20:00:22) *
vosmidesijatye, залей Сarpenter Brut лучше


Не наблюдая в сети его я.
sethurius
Держи с ютуба один
Forest Silence
[ Hidden Text ]
vosmidesijatye
Переслушал. Вроде и неплохо,...Но, но...
Razorbladeswaltz
хрень. ещё и на святое покусились (Калифорния).
нужно больше червей на вечеринке.
vosmidesijatye
Ангар, темочку с Бартоном то зацепил?
Anger
залей лучше француза с проектом Electro Synthetic Rebellion
This is a "lo-fi" version of our main content. To view the full version with more information, formatting and images, please click here.
Invision Power Board © 2001-2019 Invision Power Services, Inc.