Help - Search - Members - Calendar
Full Version: Arditi - Exaltation Of The Past [compilation] (2019)
Metal Area - Extreme Music Portal > Releases Area / Релизы > New Releases > Unformat R:
Panacea


*Artist: Arditi
*Album: Exaltation Of The Past [compilation]
*Year: 2019
*Genre: Martial Industrial/Modern Classical/Ambient
*Country: Sweden
*Format: mp3@CBR320kbps
*Size: 108MB

Tracklist:
1. Ploughshares Into Swords 04:32
2. Sieg Durch Zwecksetzung 04:29
3. Legionaries 05:43
4. Ploughshares Into Swords Part II 04:42
5. Volunteers 04:11
6. Nicht Mehr Schande 04:43
7. Blood Firmament 04:47
8. Palingenesis 03:39
9. The Sinking Ship 06:17
10. Standards Of Triumph 04:21
******************************
Total playing time: 47:24



Extended info
Compilation of tracks from the first era of Arditi.
LP limited to 100 copies released by Steinklang Industries.

Tracks 1, 3, 9 and 10 were originally released on "Standards Of Triumph".
Tracks 2, 6, 7 and 8 were originally released on "Spirit Of Sacrifice".
Track 5 was originally released on "Leading The Iron Resistance".
Track 4 was previously unreleased.

All tracks have been reworked and remastered in 2018.


Technical info

Input File: 10 - Standards Of Triumph.mp3
Channels : 2
Sample Rate : 44100
Precision : 16-bit
Duration : 00:04:21.58 = 11535722 samples = 19618.6 CDDA sectors
File Size : 10.5M
Bit Rate : 321k
Sample Encoding: MPEG audio (layer I, II or III)
Comments :
Title=Standards Of Triumph
Artist=Arditi
Album=Exaltation Of The Past
Tracknumber=10
Year=2019
Genre=Martial Industrial



[ Hidden Text ]
Wizard_in_Black
Добротная компиляция. В Martial Industrial Arditi у меня в тройке лидеров на ровне с Puissance и Les Joyaux De La Princesse
Kazoth
ЦИТАТА(Wizard_in_Black @ Jul 22 2019, 10:56:32) *
В Martial Industrial Arditi у меня в тройке лидеров на ровне с Puissance и Les Joyaux De La Princesse

А как же Triarii?
sethurius
ЦИТАТА(Wizard_in_Black @ Jul 22 2019, 10:56:32) *
на ровне с Puissance и Les Joyaux De La Princesse


Не забываем и про архаичный Von Thronstahl
Wizard_in_Black
ЦИТАТА(Kazoth @ Jul 22 2019, 20:07:52) *
А как же Triarii?

С опусами Triarii я до сих пор не ознакомился

ЦИТАТА(sethurius @ Jul 22 2019, 20:18:24) *
Не забываем и про архаичный Von Thronstahl

Этих товарищей я слушаю крайне выборочно
AlexCrazy
ЦИТАТА(sethurius @ Jul 22 2019, 22:18:24) *
Не забываем и про архаичный Von Thronstahl

и про недосягаемых отцов-основателей Laibach
sethurius
https://vk.com/search?c%5Bq%5D=Von%20Throns...41828_456252990 вот самая тема, не мог удержаться, чтобы не постануть) С ютуба почему то удалили, козлы
dalex
ЦИТАТА(sethurius @ Jul 23 2019, 19:12:13) *
Von Thronstahl We Walked in Line (North Korean Mix)

normal_Homerdisgust3.png вообще-то эта песня про SS (оригинал Joy Division - They Walked in Line).

lyrics
All dressed in uniforms so fine,
They drank and killed to pass the time,
Wearing the shame of all their crimes,
With measured steps, they walked in line.
They walked in line,
They walked in line...
They carried pictures of their wives,
And numbered tags to prove their lives,
They walked in line,
They walked in line...
Full of a glory never seen,
They made it through the whole machine,
To never question anymore,
Hypnotic trance, they never saw,
They walked in line,
They walked in line...
sethurius
Блдь, и что? Мне приглянулась обработка в стилистике Von Thronstahl , и до пзды, кто ее автор в оригинале, не надо тут этих смайликов
dalex
ЦИТАТА(sethurius @ Jul 23 2019, 20:56:16) *
Блдь, и что? Мне приглянулась обработка в стилистике Von Thronstahl , и до пзды, кто ее автор в оригинале, не надо тут этих смайликов

Я именно про "North Korean mix". У Von Thronstahl такого микса нет, так что Северная Корея там вообще ни к чему)
Kazoth
ЦИТАТА(Wizard_in_Black @ Jul 23 2019, 13:27:30) *
С опусами Triarii я до сих пор не ознакомился

Упущение
З.Ы. Еще посоветую Wappenbund, если не знаком...
sethurius
dalex, понимаешь смысл не в этом. У Металлики тоже нет песни "группа крови" цоевской, однако они ее сыграли недавно вживую. И никто не говорит, эй, послушай, это же не песня металлики, это песня группы кино, вы что)
This is a "lo-fi" version of our main content. To view the full version with more information, formatting and images, please click here.
Invision Power Board © 2001-2020 Invision Power Services, Inc.