Help - Search - Members - Calendar
Full Version: Verikaski - Surmankoi [ep] (2019)
Metal Area - Extreme Music Portal > Releases Area / Релизы > Archive
lestllk


*Artist: Verikaski
*Album: Surmankoi [ep]
*Year: 2019
*Genre: Black Metal
*Country: Finland
*Format: mp3@CBR320kbps
*Size: 45MB

Tracklist:
1. Teuras 06:21
2. Kiro 05:40
3. Ikuinen Tyven 07:32
******************************
Total playing time: 19:33

Technical info

Input File: 02 Kiro.mp3
Channels : 2
Sample Rate : 44100
Precision : 16-bit
Duration : 00:05:41.07 = 15041319 samples = 25580.5 CDDA sectors
File Size : 13.6M
Bit Rate : 320k
Sample Encoding: MPEG audio (layer I, II or III)
Comments :
Title=Kiro
Artist=Verikaski
Album=Surmankoi
Tracknumber=2
Year=2019



[ Hidden Text ]
zargonath
[ Hidden Text ]
This is a "lo-fi" version of our main content. To view the full version with more information, formatting and images, please click here.
Invision Power Board © 2001-2020 Invision Power Services, Inc.