Help - Search - Members - Calendar
Full Version: No Point In Living - Unhappy Birthday [single] (2018)
Metal Area - Extreme Music Portal > Releases Area / Релизы > Archive
TDM


*Artist: No Point In Living
*Album: Unhappy Birthday [single]
*Year: 2018
*Genre: Instrumental Depressive Black Metal
*Country: Japan
*Format: mp3@CBR320kbps
*Size: 24MB

Tracklist:
1. Unhappy Birthday 10:23
******************************
Total playing time: 10:23



Technical info

Input File: 01 - Unhappy Birthday.mp3
Channels : 2
Sample Rate : 44100
Precision : 16-bit
Duration : 00:10:23.11 = 27479151 samples = 46733.2 CDDA sectors
File Size : 25.1M
Bit Rate : 322k
Sample Encoding: MPEG audio (layer I, II or III)
Comments :
Title=Unhappy Birthday
Artist=No Point In Living
Album=Unhappy Birthday (Single)
Tracknumber=01
Year=2018
Genre=Depressive Black Metal



[ Hidden Text ]
AlexCrazy
http://static2.keep4u.ru/2019/07/21/ME2eIJiyRTY83404472c57ab33d.jpg
горшочек, не вари..... smile1.gif
TDM
ЦИТАТА(AlexCrazy @ Jul 21 2019, 23:20:47) *
горшочек, не вари..... smile1.gif

не бубни, диско оформили 25.gif
This is a "lo-fi" version of our main content. To view the full version with more information, formatting and images, please click here.
Invision Power Board © 2001-2020 Invision Power Services, Inc.