Help - Search - Members - Calendar
Full Version: Rosalie Cunningham - Rosalie Cunningham (2019)
Metal Area - Extreme Music Portal > Releases Area / Релизы > New Releases > Unformat R:
Black Cat


*Artist: Rosalie Cunningham
*Album: Rosalie Cunningham
*Year: 2019
*Genre: Psychedelic Rock
*Country: United Kingdom
*Format: mp3@CBR320kbps
*Size: 99MB

Tracklist:
01. Ride On My Bike 04:56
02. Fuck Love 04:59
03. House Of The Glass Red 04:01
04. Dethroning Of The Party Queen 04:20
05. Nobody Hears 04:51
06. Riddles And Games 04:02
07. Butterflies 02:49
08. A Yarn From The Wheel 13:44
******************************
Total playing time: 43:42



Extended info
ex-Purson


Technical info

Input File: 01 - Ride On My Bike.mp3
Channels : 2
Sample Rate : 44100
Precision : 16-bit
Duration : 00:04:56.09 = 13057613 samples = 22206.8 CDDA sectors
File Size : 11.9M
Bit Rate : 322k
Sample Encoding: MPEG audio (layer I, II or III)
Comments :
Title=Ride On My Bike
Artist=Rosalie Cunningham
Album=Rosalie Cunningham
Tracknumber=01
Year=2019
Genre=Psychedelic Rock



[ Hidden Text ]
judaz
Поет как и раньше прекрасно, а вот музыка поблекла.
tormoz
однозначно получше последнего purson, возможно даже шедевр, хотя таких мощных вещей, как например death's kiss трошки недостает.
но может все еще спереди.
vosmidesijatye
Спасибо, это знатный подгонец.
metaljosue
Dead link
This is a "lo-fi" version of our main content. To view the full version with more information, formatting and images, please click here.
Invision Power Board © 2001-2019 Invision Power Services, Inc.