Help - Search - Members - Calendar
Full Version: Glenn Hughes - Classic Deep Purple Live [bootleg] (2019)
Metal Area - Extreme Music Portal > Releases Area / Релизы > New Releases > Unformat R:
vosmidesijatye


*Artist: Glenn Hughes
*Album: Classic Deep Purple Live [bootleg]
*Year: 2019
*Genre: Hard Rock
*Country: United Kingdom
*Format: mp3@CBR320kbps
*Size: 233MB

Tracklist:
1. Intro 01:59
2. Stormbringer 05:07
3. Might Just Take Your Life 05:32
3. Sail Away 07:58
4. Glenn Speaks 01:48
5. You keep on moving 07:39
6. You Fool No One, part I 06:57
7. Blues 02:36
8. High Ball Shooter 00:55
9. You Fool No One, part II 01:26
10. Drum solo 11:50
11. You Fool No One, part III 03:45
12. Mistreated 14:50
13. Lazy intro 00:52
14. Smoke On The Water 05:49
15. Georgia on My Mind 06:15
16. Burn 08:28
17. Highway Star 08:09
******************************
Total playing time: 1:41:55

Technical info

Input File: 02 Stormbringer.mp3
Channels : 2
Sample Rate : 44100
Precision : 16-bit
Duration : 00:05:07.75 = 13571907 samples = 23081.5 CDDA sectors
File Size : 12.3M
Bit Rate : 320k
Sample Encoding: MPEG audio (layer I, II or III)



[ Hidden Text ]
vosmidesijatye
Гленн обкатывает материал т.н. МК IV - получается хорошо. smile1.gif
This is a "lo-fi" version of our main content. To view the full version with more information, formatting and images, please click here.
Invision Power Board © 2001-2019 Invision Power Services, Inc.