Help - Search - Members - Calendar
Full Version: B. B. King - To Know You Is To Love You (1973)
Metal Area - Extreme Music Portal > Releases Area / Релизы > New Releases > Unformat R:
vosmidesijatye


*Artist: B. B. King
*Album: To Know You Is To Love You
*Year: 1973
*Genre: Blues
*Country: United States
*Format: mp3@CBR320kbps
*Size: 91MB

Tracklist:
1. I Like To Live The Love
2. Respect Yourself
3. Who Are You
4. Love
5. I Can.t Leave
6. To Know You Is To Love You
7. Oh To Me
8. Thank You For Loving The Blues
******************************
Total playing time: 40:03



Technical info

Input File: 02. Respect Yourself.mp3
Channels : 2
Sample Rate : 44100
Precision : 16-bit
Duration : 00:05:15.14 = 13897454 samples = 23635.1 CDDA sectors
File Size : 12.7M
Bit Rate : 321k
Sample Encoding: MPEG audio (layer I, II or III)
Comments :
Title=Respect Yourself
Artist=B.B. King
Album=To Know You Is To Love You
Tracknumber=02
Year=1973
Genre=Blues | Chicago Blues | Delta Blues | Electric Blues | Modern Electric Blues | Regional Blues | Rhythm And Blues | Funk | Soul | Classic Blues



[ Hidden Text ]
vosmidesijatye
Отличнейший альбом. pray.gif
This is a "lo-fi" version of our main content. To view the full version with more information, formatting and images, please click here.
Invision Power Board © 2001-2019 Invision Power Services, Inc.