Help - Search - Members - Calendar
Full Version: Alice Coltrane - Journey In Satchidananda (1970)
Metal Area - Extreme Music Portal > Releases Area / Релизы > New Releases > Unformat R:
vosmidesijatye


*Artist: Alice Coltrane
*Album: Journey In Satchidananda
*Year: 1970
*Genre: Jazz/Fusion
*Country: United States
*Format: mp3@CBR320kbps
*Size: 83MB

Tracklist:
01. Journey In Satchidananda 06:37
02. Shiva-Loka 06:33
03. Stopover Bombay 02:47
04. Something About John Coltrane 09:39
05. Isis And Osiris 11:20
******************************
Total playing time: 36:56



Technical info

Input File: 01 - Journey In Satchidananda.mp3
Channels : 2
Sample Rate : 48000
Precision : 16-bit
Duration : 00:06:37.08 = 19059984 samples ~ 29781.2 CDDA sectors
File Size : 15.9M
Bit Rate : 320k
Sample Encoding: MPEG audio (layer I, II or III)
Comments :
Title=Journey In Satchidananda
Artist=Alice Coltrane
Album=Journey In Satchidananda
Tracknumber=1/5
Year=1970
Genre=Jazz



[ Hidden Text ]
vosmidesijatye
Милости прошу smile1.gif
This is a "lo-fi" version of our main content. To view the full version with more information, formatting and images, please click here.
Invision Power Board © 2001-2019 Invision Power Services, Inc.