Help - Search - Members - Calendar
Full Version: The Lysergics - The Lysergics (2014)
Metal Area - Extreme Music Portal > Releases Area / Релизы > New Releases > Unformat R:
vosmidesijatye


*Artist: The Lysergics
*Album: The Lysergics
*Year: 2014
*Genre: Acid/Psychedelic Rock
*Country: United Kingdom
*Format: mp3@CBR320kbps
*Size: 125MB

Tracklist:
1. Invisible Bars 05:24
2. Head In My Hands 02:56
3. Sun and Moon 04:28
4. Unfaithful 03:48
5. Blue Lines Splashing Orange 07:11
6. 10,000 Words In A Cardboard Box 04:42
7. On The Water 10:39
8. Julie's Glance 15:55
******************************
Total playing time: 55:03



Technical info

Input File: 01 - Invisible Bars.mp3
Channels : 2
Sample Rate : 44100
Precision : 16-bit
Duration : 00:05:24.83 = 14324871 samples = 24362 CDDA sectors
File Size : 13.1M
Bit Rate : 322k
Sample Encoding: MPEG audio (layer I, II or III)
Comments :
Title=Invisible Bars
Artist=The Lysergics
Album=The Lysergics
Tracknumber=1
Year=2014



[ Hidden Text ]
vosmidesijatye
Хорошечно. А на бэндкампе все на халяву, даже флак.
This is a "lo-fi" version of our main content. To view the full version with more information, formatting and images, please click here.
Invision Power Board © 2001-2019 Invision Power Services, Inc.