Help - Search - Members - Calendar
Full Version: B. B. King - Completely Well (1969)
Metal Area - Extreme Music Portal > Releases Area / Релизы > New Releases > Unformat R:
vosmidesijatye


*Artist: B. B. King
*Album: Completely Well
*Year: 1969
*Genre: Blues
*Country: United States
*Format: mp3@CBR320kbps
*Size: 124MB

Tracklist:
1. So Excited
2. No Good
3. You're Losin' Me
4. What Happened
5. Confessin' The Blues
6. Key To My Kingdom
7. Cryin' Won't Help You Now
8. You're Mean
9. The Thrill Is Gone
10. Fools Get Wise
******************************
Total playing time: 52:57



Technical info

Input File: 02. No Good.mp3
Channels : 2
Sample Rate : 44100
Precision : 16-bit
Duration : 00:04:35.19 = 12135967 samples = 20639.4 CDDA sectors
File Size : 11.1M
Bit Rate : 321k
Sample Encoding: MPEG audio (layer I, II or III)
Comments :
Title=No Good
Artist=B.B. King
Album=Completely Well
Tracknumber=02
Year=2012
Genre=Blues | Chicago Blues | Delta Blues | Electric Blues | Modern Electric Blues | Regional Blues | Rhythm And Blues | Funk | Soul | Classic Blues



[ Hidden Text ]
vosmidesijatye
Отличнейший альбом, многими почитающийся как вершина творчества.

А вот эта песня



не только визитная карточка исполнителя, но и одна из самых известных и культовых в мировом блюзе.
Anger
мне у него прёт только Better Not Look Down, т.к. из любимого фильма. остальное я, в принципе, неособо слушал. краем уха случайно как и многие
babanguida
Highly recommended 9.gif
vosmidesijatye
ЦИТАТА(babanguida @ Aug 6 2019, 23:20:42) *
Highly recommended 9.gif


It can be said about all releases of this performer. 9.gif
This is a "lo-fi" version of our main content. To view the full version with more information, formatting and images, please click here.
Invision Power Board © 2001-2019 Invision Power Services, Inc.