Help - Search - Members - Calendar
Full Version: Константин Никольский - Один Взгляд Назад (1996)
Metal Area - Extreme Music Portal > Releases Area / Релизы > New Releases > Unformat R:
vosmidesijatye


*Artist: Константин Никольский
*Album: Один Взгляд Назад
*Year: 1996
*Genre: Blues Rock
*Country: Russian Federation
*Format: mp3@CBR320kbps
*Size: 104MB

Tracklist:
1. Зеркало мира
2. Один взгляд назад
3. Ночная птица
4. Мой друг художник и поэт
5. В моей душе осадок зла
6. Птицы белые мои
7. Музыкант
8. Я сам из тех...
9. Воскресенье
10. Когда поймешь умом...
******************************
Total playing time: 48:00



Technical info

Input File: 01 - Зеркало мира.mp3
Channels : 2
Sample Rate : 48000
Precision : 16-bit
Duration : 00:05:11.64 = 14958864 samples ~ 23373.2 CDDA sectors
File Size : 12.6M
Bit Rate : 323k
Sample Encoding: MPEG audio (layer I, II or III)
Comments :
Title=Зеркало мира
Artist=Константин Никольский
Album=Один взгляд назад
Tracknumber=01
Year=1996
Genre=Rock



[ Hidden Text ]
vosmidesijatye
Классика.

Один взгляд назад , Мой друг художник и поэт, В моей душе осадок зла - платиновое наследие российской музыки. pray.gif
This is a "lo-fi" version of our main content. To view the full version with more information, formatting and images, please click here.
Invision Power Board © 2001-2019 Invision Power Services, Inc.