Help - Search - Members - Calendar
Full Version: The Ivory Elеphant - Stoneface (2019)
Metal Area - Extreme Music Portal > Releases Area / Релизы > New Releases > Unformat R:
vosmidesijatye


*Artist: The Ivory Elеphant
*Album: Stoneface
*Year: 2019
*Genre: Psychedelic/Blues Rock
*Country: Australia
*Format: mp3@CBR320kbps
*Size: 107MB

Tracklist:
1. Storm 05:41
2. Maybe I'm Evil 04:04
3. Wars 06:51
4. Roll On 03:09
5. Jazzhead pt I 02:11
6. Low Expectation 03:38
7. Stoneface Jamboree 03:51
8. Stoneface 07:46
9. Hard Case 03:16
10. Jazzhead pt II 06:50
******************************
Total playing time: 47:17



Technical info

Input File: 01. Storm.mp3
Channels : 2
Sample Rate : 44100
Precision : 16-bit
Duration : 00:05:37.54 = 14885382 samples = 25315.3 CDDA sectors
File Size : 13.6M
Bit Rate : 322k
Sample Encoding: MPEG audio (layer I, II or III)
Comments :
Title=Storm
Artist=The Ivory Elephant
Album=Stoneface
Tracknumber=1
Year=2019
Genre=Psychedelic Rock



[ Hidden Text ]
vosmidesijatye
Очень порадовал сей сытный релиз.
This is a "lo-fi" version of our main content. To view the full version with more information, formatting and images, please click here.
Invision Power Board © 2001-2019 Invision Power Services, Inc.