Help - Search - Members - Calendar
Full Version: Saluki - Saluki (1976)
Metal Area - Extreme Music Portal > Releases Area / Релизы > New Releases > Unformat R:
vosmidesijatye


*Artist: Saluki
*Album: Saluki
*Year: 1976
*Genre: Progressive/Jazz Rock/Fusion
*Country: Norway
*Format: mp3@CBR320kbps
*Size: 114MB

Tracklist:
1. Come Down 05:13
2. Autumn 05:52
3. The Awakening 03:45
4. Love to the Sun 09:32
5. Uranus in Cancer 06:26
6. Fantasy Suns 01:51
7. Hidden Path III 10:06
8. Take the Road Across the Bridge 07:17
******************************
Total playing time: 50:02



Technical info

Input File: 01. Come Down.mp3
Channels : 2
Sample Rate : 44100
Precision : 16-bit
Duration : 00:05:13.28 = 13815648 samples = 23496 CDDA sectors
File Size : 12.6M
Bit Rate : 323k
Sample Encoding: MPEG audio (layer I, II or III)
Comments :
Title=Come Down
Artist=Saluki
Album=Saluki
Tracknumber=01
Year=1976
Genre=Progressive Rock



[ Hidden Text ]
vosmidesijatye
Волшебно. 20.gif

Второй альбом вышел аж в 2018 году.
TDM
ЦИТАТА(vosmidesijatye @ Aug 16 2019, 01:04:12) *
*Genre: Progressive/Jazz Rock

не залазя в интернеты, вангую шо это фужон

а вот выпускать альбомы раз в 40 лет - это уже авангард headcrab.png
This is a "lo-fi" version of our main content. To view the full version with more information, formatting and images, please click here.
Invision Power Board © 2001-2019 Invision Power Services, Inc.