Help - Search - Members - Calendar
Full Version: Aguaturbia - Psychedelic Drugstore (1970)
Metal Area - Extreme Music Portal > Releases Area / Релизы > New Releases > Unformat R:
vosmidesijatye


*Artist: Aguaturbia
*Album: Psychedelic Drugstore
*Year: 1970
*Genre: Psychedelic Rock/Heavy Psych
*Country: Chile
*Format: mp3@CBR320kbps
*Size: 123MB

Tracklist:
1. Somebody To Love
2. Erotica
3. Rolling 'n' Tumbling
4. Ah ah ah ay
5. Crimson & Clover
6. Heartbreaker
7. Blues On the Westside
8. Waterfall
9. Evol
10. I Wonder Who
11. Aguaturbia
******************************
Total playing time: 53:15



Technical info

Input File: 01 - Somebody To Love.mp3
Channels : 2
Sample Rate : 44100
Precision : 16-bit
Duration : 00:03:02.86 = 8064126 samples = 13714.5 CDDA sectors
File Size : 8.16M
Bit Rate : 357k
Sample Encoding: MPEG audio (layer I, II or III)
Comments :
Title=Somebody To Love
Artist=Aguaturbia
Album=Psychedelic Drugstore (1970) [FLAC] {CDR}
Tracknumber=01



[ Hidden Text ]
vosmidesijatye
Добротный такой раритетец.
This is a "lo-fi" version of our main content. To view the full version with more information, formatting and images, please click here.
Invision Power Board © 2001-2019 Invision Power Services, Inc.