Help - Search - Members - Calendar
Full Version: Ash Ra Tempel - Ash Ra Tempel (1971)
Metal Area - Extreme Music Portal > Releases Area / Релизы > New Releases > Unformat R:
vam1972


*Artist: Ash Ra Tempel
*Album: Ash Ra Tempel
*Year: 1971
*Genre: Kraut Rock
*Country: Germany
*Format: mp3@CBR320kbps
*Size: 106MB

Tracklist:
01. Amboss
02. Traummaschine
******************************
Total playing time: 45:26

Technical info

Input File: 01. Amboss.mp3
Channels : 2
Sample Rate : 44100
Precision : 16-bit
Duration : 00:19:54.42 = 52673790 samples = 89581.3 CDDA sectors
File Size : 47.8M
Bit Rate : 320k
Sample Encoding: MPEG audio (layer I, II or III)
Comments :
Title=Amboss
Artist=Ash Ra Tempel
Album=Ash Ra Tempel
Tracknumber=01



[ Hidden Text ]
vam1972
[ Hidden Text ]
This is a "lo-fi" version of our main content. To view the full version with more information, formatting and images, please click here.
Invision Power Board © 2001-2019 Invision Power Services, Inc.