*Artist: Ac/dc
*Album: A Giant Dose Of Rock 'n' Roll [bootleg]
*Year: 1977
*Genre: Hard Rock
*Country: Australia
*Format: mp3@VBR224kbps
*Size: 115MB

Tracklist:
01. Love Song (intro) / Dirty Deeds Done Dirt Cheap 6:10
02. She's Got Balls 6:31
03. Problem Child 4:25
04. Live Wire 6:12
05. The Jack 9:17
06. Jailbreak 4:49
07. T.N.T. 3:42
08. Can I Sit Next To You Girl 5:00
09. High Voltage 5:24
10. Baby Please Dont Go 11:47
11. Rocker 7:04
******************************
Total playing time: 1:10:21

Extended info
Discogs

Live at City Hall, Hobart, Tasmania, Australia, Jan. 7th 1977


Technical info

Input File: 01 Love Song _ Dirty Deeds Done Dirt Cheap.mp3
Channels : 2
Sample Rate : 44100
Precision : 16-bit
Duration : 00:06:10.02 = 16318014 samples = 27751.7 CDDA sectors
File Size : 10.4M
Bit Rate : 224k
Sample Encoding: MPEG audio (layer I, II or III)
Comments :
Title=Love Song _ Dirty Deeds Done Dirt Cheap
Artist=AC-DC
Album=Live at City Hall, Hobart, Tasmania, Australia, Jan. 7th
Tracknumber=1
Year=1977
Genre=Hard Rock



[ Hidden Text ]