Help - Search - Members - Calendar
Full Version: Mahara - The Gathering (2019)
Metal Area - Extreme Music Portal > Releases Area / Релизы > Archive
necroscum


*Artist: Mahara
*Album: The Gathering
*Year: 2019
*Genre: Stoner/Doom Metal
*Country: Spain
*Format: mp3@CBR320kbps
*Size: 101MB

Tracklist:
01. Deathstalker 12:09
02. God's Requiem 06:39
03. Widzard's Tower 07:59
04. Merga 04:49
05. The Gathering 12:28
******************************
Total playing time: 44:04




Technical info

Input File: 02 God\'s Requiem.mp3
Channels : 2
Sample Rate : 44100
Precision : 16-bit
Duration : 00:06:39.88 = 17634752 samples = 29991.1 CDDA sectors
File Size : 16.3M
Bit Rate : 326k
Sample Encoding: MPEG audio (layer I, II or III)
Comments :
Title=God's Requiem
Artist=Mahara
Album=The Gathering
Tracknumber=2
Year=2019
Genre=Metal



[ Hidden Text ]
Ignativs
Please, reupload. pray.gif
Ingvar
104 mb/320 kbps
[ Hidden Text ]
This is a "lo-fi" version of our main content. To view the full version with more information, formatting and images, please click here.
Invision Power Board © 2001-2023 Invision Power Services, Inc.