Help - Search - Members - Calendar
Full Version: Eschaton - Death Obsession (2019)
Metal Area - Extreme Music Portal > Releases Area / Релизы > New Releases > Lossless
necroscum


*Artist: Eschaton
*Album: Death Obsession
*Year: 2019
*Genre: Technical Death Metal/Deathcore
*Country: Italy
*Format: mp3@CBR320kbps
*Size: 77MB

Tracklist:
01. Born into Shadows 05:25
02. Tides of Betrayal 04:29
03. Death Obsession 04:17
04. Exordia 01:50
05. Umbra Totalis 03:43
06. Wake of the Ophidian 03:47
07. Of Freedom and Deception 02:48
08. Imperial 02:53
09. Seal of the Curse 04:16
******************************
Total playing time: 33:28





Technical info

Input File: 2 - Tides of Betrayal.mp3
Channels : 2
Sample Rate : 44100
Precision : 16-bit
Duration : 00:04:29.73 = 11895049 samples = 20229.7 CDDA sectors
File Size : 10.9M
Bit Rate : 322k
Sample Encoding: MPEG audio (layer I, II or III)
Comments :
Title=Tides of Betrayal
Artist=Eschaton
Album=Death Obsession
Tracknumber=2
Year=2019
Genre=Metal
Discnumber=1



[ Hidden Text ]
andris
Эсхатон на Эсхатоне и Эсхатоном погоняет я к тому что вот эти ( Eschaton - Sentinel Apocalypse (2015) как одна и таже группа только страна USA, эти (https://metalarea.org/forum/index.php?showtopic=296200&hl=Eschaton)- словаки crazy.gif , есть ещё белорусы, греки , австрийцы, бразильцы...... crazy.gif Да кстати просьба бросить ещё на какой нибудь обменник а то меге лимит закончен просят денежек, и по музыке вроде послушать можно превьюха более-менее понравилась!
andris
А словаки {Eschaton - Ultimum Exitium (2017)} - то оказались на поверку просто шикарным нищтяком!!!! headcrab.png Как бы не сказать что шедевр но твёрдая четвёрка точно!!!!!!!!!!!!!!!!!!
AHBAnep
USA, not Italy
https://www.metal-archives.com/bands/Eschaton/3540332311
VLADISLAV_V_K
ЦИТАТА(andris @ 12th September 2019 - 21:50:32) *
просьба бросить ещё на какой нибудь обменник

Зеркало 320:
[ Hidden Text ]
VLADISLAV_V_K
FLAC tracks
[ Hidden Text ]
This is a "lo-fi" version of our main content. To view the full version with more information, formatting and images, please click here.
Invision Power Board © 2001-2020 Invision Power Services, Inc.