Help - Search - Members - Calendar
Full Version: (Echo) - Below The Cover Of Clouds (2019)
Metal Area - Extreme Music Portal > Releases Area / Релизы > New Releases > Lossless
necroscum


*Artist: (Echo)
*Album: Below The Cover Of Clouds
*Year: 2019
*Genre: Melodic Death/Doom Metal
*Country: Italy
*Format: mp3@CBR320kbps
*Size: 127MB

Tracklist:
01. (Y)our Warmth 11:05
02. Glimpses and Fear 08:45
03. Culmine 2:18 04:25
04. Blind Snow 08:49
05. My Burden 07:04
06. The Ferryman 08:16
07. Awakening 06:50
******************************
Total playing time: 57:32






Technical info

Input File: 2 - Glimpses and Fear.mp3
Channels : 2
Sample Rate : 44100
Precision : 16-bit
Duration : 00:08:45.09 = 23156469 samples = 39381.8 CDDA sectors
File Size : 21.1M
Bit Rate : 321k
Sample Encoding: MPEG audio (layer I, II or III)
Comments :
Title=Glimpses and Fear
Artist=(Echo)
Album=Below the Cover of Clouds
Tracknumber=2
Year=2019
Genre=Metal
Discnumber=1



[ Hidden Text ]
DenisKov
Не осилил до конца, очень тягомотный у них мелодик дум, МДМ тут не в тему вписали.
Un4given
Неплохой осенний фоновый думец, но хуковых моментов в сравнении с их же Devoid of Illusions не хватает. До Cold Insight тоже не дотягивает
deathic
please, re-upload.
Borderline1991
[ Hidden Text ]
Ghostb
Обложка симпатичная.
quicksand
ЦИТАТА(Ghostb @ Oct 10 2019, 22:45:32) *
Обложка симпатичная.

И не только...
Вот ведь интересный материал преподнесли итальянцы и в этот раз.
Только недавно познакомился с коллективом по их дебютнику, а тут оказывается и свеженькое подоспело и ещё не успело остыть.
И мне очень нравится этот альбом, я бы сказал, он лучше уже тем, что на нем мне слышится больше таких черт, которые я бы назвал именно Echo'вские: теплая воздушная легкость и хореографическая пластичность каждого звука, проработанность композиций (хоть и на Devoid of Illusions
не сказать, что было плохо), при этом они не изменили принципам хмурого стиля именуемого дум металлом, скорее расширили рамки. Кроме того, тут, мне кажется, уже проявлен, в большей степени, собственный почерк группы, отличающий её от коллег по цеху, а ближайшие ассоциации смещаются от коллективов северных широт в сторону южных, а именно их земляков November.
И наконец, вместо того, чтоб слушать новый релиз от таких знакомых, но набивших оскомину November's doom, откровенно говоря, наперед предвкушая, если не облом, то скуку, решил последовать за молодежью. На мой вкус, они не подвели.
Более всего понравилась Blind Snow, но и остальные 6 на отлично, ни одна не лишняя, все хороши и к месту, альбом слушается целостно.
Мои рекомендации
This is a "lo-fi" version of our main content. To view the full version with more information, formatting and images, please click here.
Invision Power Board © 2001-2019 Invision Power Services, Inc.