Help - Search - Members - Calendar
Full Version: Workshed - Workshed (2019)
Metal Area - Extreme Music Portal > Releases Area / Релизы > New Releases
necroscum


*Artist: Workshed
*Album: Workshed
*Year: 2019
*Genre: Stoner/Doom Metal
*Country: United Kingdom
*Format: mp3@CBR320kbps
*Size: 106MB

Tracklist:
01. The Windowpanes at the Lexington
02. If This is How It Is
03. Nowhere to Go
04. Anthropophobic
05. On Sticks of Wood
06. This City Has Fallen
07. A Spirit in Exile
08. Safety Behaviours
09. It Doesnt Have to Be That Way
******************************
Total playing time: 30:51



Technical info

Input File: 02. If This is How It Is.mp3
Channels : 2
Sample Rate : 44100
Precision : 16-bit
Duration : 00:04:44.68 = 12554168 samples = 21350.6 CDDA sectors
File Size : 11.5M
Bit Rate : 324k
Sample Encoding: MPEG audio (layer I, II or III)
Comments :
Title=If This is How It Is
Artist=Workshed
Album=Workshed
Tracknumber=2/9
Year=2019
Genre=9
Discnumber=1/1



[ Hidden Text ]
AHBAnep
ЦИТАТА
Experimental Doom band featuring ex Cathedral musicians Mark Wharton and Adam Lehan.



27.gif
gorven
dead link. possible to post it again ?
Tarelka
недурно
vosmidesijatye
Слишком быстро, панк какой то местами.

Ну и вокал не оч
vosmidesijatye
Конан никогда не нравились.

А че за проект дориана with the dead чтоли?
deathic
please, re-upload.
Borderline1991
[ Hidden Text ]
This is a "lo-fi" version of our main content. To view the full version with more information, formatting and images, please click here.
Invision Power Board © 2001-2019 Invision Power Services, Inc.