Help - Search - Members - Calendar
Full Version: Kostnatění - Hrůza Zvítězí (2019)
Metal Area - Extreme Music Portal > Releases Area / Релизы > New Releases
rewa


*Artist: Kostnatění
*Album: Hrůza Zvítězí
*Year: 2019
*Genre: Black Metal
*Country: United States
*Format: mp3@CBR320kbps
*Size: 98MB

Tracklist:
1. Hrůza zvítězí 11:28
2. Jedna generace 06:34
3. Každé zranění předurčeno 06:38
4. Únik z existence 03:51
5. Donekonečna v přítomném čase 09:25
******************************
Total playing time: 37:56



Extended info
Thanks to Daale.

HRŮZA ZVÍTĚZÍ ("horror will prevail") has been created as a monument to death. Not a fantastical death with promises something beyond this world, but the cessation of being which looms at the end of all lives. As I wrote the songs which became HRŮZA ZVÍTĚZÍ, I was obsessed by my own death, constantly fighting off panic attacks relating to dying, and living in a constant suffocating dread. Every section was written with the explicit goal of conveying this dread, while also pushing my own limits as an artist. Retrospectively, I believe this album to have been meditative and liberating for me: much of the anxiety that once plagued me is now enshrined here, forever.

KOSTNATĚNÍ is written, recorded, and mixed by D.L.

Abe Plaut - Trumpet on "Hrůza zvítězí"
S.H. - Noise on "Donekonečna v přítomném čase"
Jacob Buczarski - Drum programming, mixing, mastering
Frank Heiler - Artwork

Thanks to:

Andrew Lee
Markov Soroka
Mystískaos
The RIM
Serpent Column
TapeKvlt


Technical info

Input File: Kostnatění - Hrůza zvítězí - 01 Hrůza zvítězí.mp3
Channels : 2
Sample Rate : 44100
Precision : 16-bit
Duration : 00:11:28.13 = 30346489 samples = 51609.7 CDDA sectors
File Size : 27.7M
Bit Rate : 322k
Sample Encoding: MPEG audio (layer I, II or III)
Comments :
Title=Hrůza zvítězí
Artist=Kostnatění
Album=Hrůza zvítězí
Tracknumber=1
Year=2019



[ Hidden Text ]
HviteGuden
Развитие идей демки в стиле, больше укоренённом в диссонансах и хаотичности, близком к DsO и т.д. Работа будет в моём топе года, что, в общем-то, уже было понятно после стрима альбома, и теперь, расслушивая его, я только убеждаюсь в этом.
garmonbozia
какофония
mittal
хунта
Chasm
облога огонь
Fess
Сплошной хаос, да и только. 21.gif
This is a "lo-fi" version of our main content. To view the full version with more information, formatting and images, please click here.
Invision Power Board © 2001-2019 Invision Power Services, Inc.