*Artist: Mob Rules
*Album: Beast Over Europe [live]
*Year: 2019
*Genre: Melodic Power Metal
*Country: Germany
*Format: mp3@CBR320kbps
*Size: 183MB

Tracklist:
1.Beast Reborn 01:04 instrumental
2.Ghost of a Chance 04:41
3.Somerled 05:11
4.Black Rain 06:20
5.Sinister Light 04:40
6.Dykemaster's Tale 09:25
7.My Kingdom Come 05:26
8.The Last Farewell 05:29
9.Children's Crusade 04:59
10.On the Edge 06:10
11.(In the Land of) Wind and Rain 06:35
12.Hollowed Be Thy Name 06:23
13.Way Back Home 04:42
14.Rain Song 06:15
******************************
Total playing time: 1:17:20



Extended info
Line - up:

Klaus Dirks - Vocals
Markus Brinkmann - Bass (ex-Ela)
Sven Lüdke - Guitars (ex-Murder One)
Nikolas Fritz - Drums (Savallion Dawn)
Jan Christian Halfbrodt - Keyboards (Experience X, ex-Ela)
Florian Dyszbalis - Guitars (Ravage Inc.)

https://www.metal-archives.com/images/7/1/2/712_photo.jpg?2717


Technical info

Input File: 13 Way Back Home.mp3
Channels : 2
Sample Rate : 44100
Precision : 16-bit
Duration : 00:04:42.51 = 12458515 samples = 21188 CDDA sectors
File Size : 11.3M
Bit Rate : 320k
Sample Encoding: MPEG audio (layer I, II or III)
Comments :
Title=Way Back Home
Artist=Mob Rules
Album=Beast Over Europe (Live)
Tracknumber=13
Year=2019
Genre=Melodic Power Metal



[ Hidden Text ]