Help - Search - Members - Calendar
Full Version: Chelsea Wolfe - Daytrotter Session 2/14/2012 [ep] (2012)
Metal Area - Extreme Music Portal > Releases Area / Релизы > New Releases > Unformat R:
fylopaloma


*Artist: Chelsea Wolfe
*Album: Daytrotter Session 2/14/2012 [ep]
*Year: 2012
*Genre: Atmospheric Folk/Ethereal
*Country: United States
*Format: mp3@CBR320kbps
*Size: 36MB

Tracklist:
1. Welcome To Daytrotter 0:03
2. Benjamin 4:36
3. Mer 4:45
4. Tracks 3:48
5. Feral Love 3:21
******************************
Total playing time: 16:33





Extended info
Daytrotter session recorded at Studio Paradiso, San Francisco, CA, Feb 14, 2012.

Subtitle: The Icy Waters Of The Human Unraveling.

The session is available to stream or download at the Daytrotter site.


Technical info

Input File: 02. Benjamin.mp3
Channels : 2
Sample Rate : 44100
Precision : 16-bit
Duration : 00:04:36.19 = 12179759 samples = 20713.9 CDDA sectors
File Size : 11.1M
Bit Rate : 321k
Sample Encoding: MPEG audio (layer I, II or III)
Comments :
Title=Benjamin
Artist=Chelsea Wolfe
Album=Daytrotter Session
Tracknumber=02
Year=2012
Genre=Ethereal Wave, Gothic Rock



[ Hidden Text ]
KKK1488
За такие подгоны тебя, бро, расцеловать надо! Спасибо, братанчик и дружаня! От моей бабы поцелуй в хуй)))) Вот даст [мат->бан]юлей мне мою любимая)) но ради Членси я готов) спасибо!
This is a "lo-fi" version of our main content. To view the full version with more information, formatting and images, please click here.
Invision Power Board © 2001-2022 Invision Power Services, Inc.