Help - Search - Members - Calendar
Full Version: Anima Frisia - Ekke Nekke Penn (2019)
Metal Area - Extreme Music Portal > Releases Area / Релизы > Archive
necroscum


*Artist: Anima Frisia
*Album: Ekke Nekke Penn
*Year: 2019
*Genre: Pagan Metal
*Country: Germany
*Format: mp3@CBR320kbps
*Size: 91MB

Tracklist:
1. Lever duad üs Slaav 05:53
2. Leuchtfeuer 06:19
3. Fositasland 09:53
4. Hanelsman 05:37
5. Ekke Nekke Penn 10:09
******************************
Total playing time: 37:51



Technical info

Input File: 02. Leuchtfeuer.mp3
Channels : 2
Sample Rate : 44100
Precision : 16-bit
Duration : 00:06:19.56 = 16738464 samples = 28466.8 CDDA sectors
File Size : 16.0M
Bit Rate : 337k
Sample Encoding: MPEG audio (layer I, II or III)
Comments :
Title=Leuchtfeuer
Artist=Anima Frisia
Album=Ekke Nekke Penn
Tracknumber=2/5
Year=2019



[ Hidden Text ]
isvili
Такой Pagan Metal никогда не нравился.
This is a "lo-fi" version of our main content. To view the full version with more information, formatting and images, please click here.
Invision Power Board © 2001-2020 Invision Power Services, Inc.