Help - Search - Members - Calendar
Full Version: Blod Besvimelse & Heroin Makes Happy - Tales From The Pitifulness/Last Silence Dream [split] (1999)
Metal Area - Extreme Music Portal > Releases Area / Релизы > Archive
Svafrlami


*Artist: Blod Besvimelse & Heroin Makes Happy
*Album: Tales From The Pitifulness/Last Silence Dream [split]
*Year: 1999
*Genre: Ambient/Black Metal | Ambient/Black Metal
*Country: Germany | Germany
*Format: mp3@VBR227kbps
*Size: 42MB

Tracklist:
Blod Besvimelse:
1. Misanthrop
2. Necromantic (Cover version)
3. Forakte
4. Blod styrtning
5. Misebanke (Outro)
Heroin Makes Happy:
6. H Transfers Me to You
7. Too Much of Brown Death (The Golden Shot)
8. Ewiger Holokaust
9. Die heimliche Zerstörung
******************************
Total playing time: 25:20



Technical info

Input File: 07 - Heroin Makes Happy - Too Much Brown Death (The Golden Shot).mp3
Channels : 2
Sample Rate : 44100
Precision : 16-bit
Duration : 00:01:58.86 = 5241594 samples = 8914.28 CDDA sectors
File Size : 3.66M
Bit Rate : 246k
Sample Encoding: MPEG audio (layer I, II or III)
Comments :
Title=Too Much Brown Death (The Golden Shot)
Artist=Heroin Makes Happy
Album=Heroin Makes Happy & Blod Besvimelse Split CS
Tracknumber=7
Year=2000
Genre=Black Metal



[ Hidden Text ]
RUSP73
Блэка здесь кот наплакал, а девушка могла бы и поухаживать за собой, прежде чем такое фото выкладывать 25.gif Хотя - это только видимость - все-таки черно-белое фото)
Ну а так R.I.P -грустно 6.gif Возраст кто знает и причину смерти?
KKK1488
ЦИТАТА(RUSP73 @ Sep 26 2019, 10:16:13) *
Блэка здесь кот наплакал, а девушка могла бы и поухаживать за собой, прежде чем такое фото выкладывать 25.gif Хотя - это только видимость - все-таки черно-белое фото)
Ну а так R.I.P -грустно 6.gif Возраст кто знает и причину смерти?


наркотики. начала колоться в пах... заражение, вонючая смерть. не успели спасти. Или 32 или 33 года...
YDV.SVARTVIND
m0821.gif Я не знаю как вы но я бы вдул :3 25.gif
RUSP73
ЦИТАТА(YDV.SVARTVIND @ Sep 26 2019, 20:26:07) *
m0821.gif Я не знаю как вы но я бы вдул :3 25.gif

Некрофилия знаете ли, батюшка, такое дело..вы бы поосторожнее 25.gif
This is a "lo-fi" version of our main content. To view the full version with more information, formatting and images, please click here.
Invision Power Board © 2001-2022 Invision Power Services, Inc.