Help - Search - Members - Calendar
Full Version: Dysangelium - Death Leading (2019)
Metal Area - Extreme Music Portal > Releases Area / Релизы > Archive
demenn


*Artist: Dysangelium
*Album: Death Leading
*Year: 2019
*Genre: Black Metal
*Country: Germany
*Format: mp3@CBR320kbps
*Size: 92MB

Tracklist:
01. XIII 01:20
02. Fated 05:40
03. Homo Larvalis 05:28
04. Death Leading 04:22
05. The Great Work 06:17
06. Through Henbane Nebulah 05:25
07. Venus Inverse 04:45
08. When Death And Devil Rise 06:40
******************************
Total playing time: 40:00




Extended info


Technical info

Input File: 02. Fated.mp3
Channels : 2
Sample Rate : 48000
Precision : 16-bit
Duration : 00:05:40.11 = 16325136 samples ~ 25508 CDDA sectors
File Size : 13.6M
Bit Rate : 320k
Sample Encoding: MPEG audio (layer I, II or III)
Comments :
Title=Fated
Artist=Dysangelium
Album=Death Leading
Tracknumber=02
Year=2019
Genre=Black Metal



[ Hidden Text ]
Dmitry1977
Превосходно!
Первый альбом вроде был в духе Dissection, а тут поехали в набившую оскомину ортодоксовщину аля Ofermod, но круто получилось!
Velmi


Dysangelium - 2019 - Death Leading
World Terror Committee - W.T.C.176

Bandcamp 320 Kbps @ Yadi.sk
[ Hidden Text ]
Samaritianin
ЦИТАТА(FlammenTod666 @ 8th October 2019 - 20:05:01) *
flac?

FLAC (Tracks) 289 mb
[ Hidden Text ]
Sangreal
Full album stream.

templ
вокал внезапно дичайше напомнил ян-криса де койера из gorefest. что только в плюс, разумеется, хотя музыка и без того весьма примечательна. прекрасная работа!
smes
ЦИТАТА(templ @ Oct 29 2019, 00:36:05) *
вокал внезапно дичайше напомнил ян-криса де койера из gorefest.

В натуре. Шикарная работа. до дыр буду слушать
This is a "lo-fi" version of our main content. To view the full version with more information, formatting and images, please click here.
Invision Power Board © 2001-2021 Invision Power Services, Inc.