Help - Search - Members - Calendar
Full Version: Eye Of The Enemy - Titan (2019)
Metal Area - Extreme Music Portal > Releases Area / Релизы > New Releases > Lossless
necroscum


*Artist: Eye Of The Enemy
*Album: Titan
*Year: 2019
*Genre: Modern/Melodic Death Metal
*Country: Australia
*Format: mp3@CBR320kbps
*Size: 106MB

Tracklist:
01. Clay
02. Empire
03. Of Blood and Wine
04. The Artist's Decay
05. Stress and Colours
06. Tabula Rasa
07. Titan
08. Cinders
09. Abrasive Turns of Phrases
10. Hooks and Wires
******************************
Total playing time: 46:08







Technical info

Input File: 02 Empire.mp3
Channels : 2
Sample Rate : 44100
Precision : 16-bit
Duration : 00:05:07.50 = 13560926 samples = 23062.8 CDDA sectors
File Size : 12.3M
Bit Rate : 320k
Sample Encoding: MPEG audio (layer I, II or III)
Comments :
Title=Empire
Artist=Eye of the Enemy
Album=Titan
Tracknumber=02/10
Year=2019-19-20
Discnumber=1/1



[ Hidden Text ]
Dreamtale
Если учесть, что эволюционно рога у многих животных сформулировались как атрибут внутривидовой борьбы за доминирование, а не как средство нападения, на всяких рогатых чертей на обложках можно взглянуть с новой, неожиданной стороны...
Slam91
Клип на "Clay" весьма любопытным показался. Заценим альбом.
timteam88
FLAC:
[ Hidden Text ]
This is a "lo-fi" version of our main content. To view the full version with more information, formatting and images, please click here.
Invision Power Board © 2001-2020 Invision Power Services, Inc.