Help - Search - Members - Calendar
Full Version: Батюшка - Свеча Господня (2019)
Metal Area - Extreme Music Portal > Releases Area / Релизы > New Releases > Unformat R:
Krosis


*Artist: Батюшка
*Album: Свеча Господня
*Year: 2019
*Genre: Unblack Metal
*Country: Russian Federation
*Format: mp3@VBR276kbps
*Size: 92MB

Tracklist:
1. Господи Иисусе
2. Псалмы
3. Царь Небесный
4. Святая Гора
5. Смилуйся Над Нами
6. Господь Услышит
7. Закон Божий
8. Сокровенная Комната
9. Преподобный
10. Завет
******************************
Total playing time: 45:42



Technical info

Input File: 01. Господи Иисусе.mp3
Channels : 2
Sample Rate : 44100
Precision : 16-bit
Duration : 00:05:05.92 = 13491072 samples = 22944 CDDA sectors
File Size : 10.6M
Bit Rate : 277k
Sample Encoding: MPEG audio (layer I, II or III)
Comments :
Title=Господи Иисусе
Artist=Батюшка
Album=Свеча Господня
Tracknumber=1
Year=2019



[ Hidden Text ]
vosmidesijatye
Ради прикола чекнул - ну это реально самый худший бабущка бэтмэн из всех доселе возможных.
Dmitry1977
Свеча - в смысле суппозиторий?
Эти Батюшки - такие затейники. Насуют друг другу под сутану и давай потом свечевать ...
TDM
Шо, опять?
Батюшкам определенно требуется экзорцызьмЪ!
FullofHate
Смысл существования таких проектов - сбор форумного хейта и не более. Если верить архивам - за 2019 год выпущено аж восемь вот таких пустозвонских альбома.
Я немножко пошарил по сети... не нашел вообще никаких отзывов о музыкальной составляющей, все разговоры вокруг да около польских коммерсантов.

Чувак, автор проекта, найди работу уже!
vosmidesijatye
ЦИТАТА(TDM @ Oct 29 2019, 16:01:09) *
Шо, опять?
Батюшкам определенно требуется экзорцызьмЪ!


Дружно зовем экзорциста.

Димааааааа....
plfan93
Чтоб у них свечи отвалились.
Предать их всех анафеме.
Kwaad
QUOTE
*Album: Срань Господня

Очевидный фикс.
vosmidesijatye
Они кстати тру христиане высткпающие против остальных батянь
FullofHate
ЦИТАТА(vosmidesijatye @ Oct 30 2019, 16:44:26) *
Они кстати тру христиане высткпающие против остальных батянь

Но только когда мамка разрешает посидеть за компуктером, после выученных уроков и уборки в комнате.
vosmidesijatye
ЦИТАТА(FullofHate @ Oct 30 2019, 17:02:21) *
Но только когда мамка разрешает посидеть за компуктером, после выученных уроков и уборке в комнате.


Как в воду глядел. На бк есть фото перед компом и с книгой 1488.gif
MetalAreola
Aaand the 8th album is out:
Metal Archives
vasilisk
ЦИТАТА(MetalAreola @ Nov 3 2019, 09:23:11) *
Aaand the 8th album is out:
Metal Archives

Ну и на фиг он тут нужен 21.gif
Krosis
лол, они это говно ещё и платным сделали
This is a "lo-fi" version of our main content. To view the full version with more information, formatting and images, please click here.
Invision Power Board © 2001-2020 Invision Power Services, Inc.