Help - Search - Members - Calendar
Full Version: Тиран - No Gods, No Masters [ep] (2019)
Metal Area - Extreme Music Portal > Releases Area / Релизы > Archive
smysl


*Artist: Тиран
*Album: No Gods, No Masters [ep]
*Year: 2019
*Genre: Thrash Metal
*Country: Russian Federation
*Format: mp3@CBR320kbps
*Size: 33MB

Tracklist:
1.No Gods, No Masters 03:26
2.Witchflight 04:07
3.Apocalyptic Tales (Live in Badland Club - Rostov-On-Don) 02:18
4.Metal Messiah (Live in Badland Club - Rostov-On-Don) 02:52
******************************
Total playing time: 12:43

Extended info
CD, Wings of Destruction (WOD 054)
Cardboard sleeve (Limited edition 500 copies.)
+ scans


Technical info

Input File: 01 No Gods, No Masters.mp3
Channels : 2
Sample Rate : 44100
Precision : 16-bit
Duration : 00:03:25.98 = 9083806 samples = 15448.6 CDDA sectors
File Size : 8.36M
Bit Rate : 325k
Sample Encoding: MPEG audio (layer I, II or III)
Comments :
Title=No Gods, No Masters
Artist=Тиран
Album=No Gods, No Masters
Tracknumber=1
Year=2019
Genre=Thrash Metal



[ Hidden Text ]
asog
Witchflight - коверок на Sabbat джапанский
This is a "lo-fi" version of our main content. To view the full version with more information, formatting and images, please click here.
Invision Power Board © 2001-2021 Invision Power Services, Inc.