*Artist: Kross Of Khaoss
*Album: Slay Pride
*Year: 2019
*Genre: Heavy Metal
*Country: Italy
*Format: mp3@CBR320kbps
*Size: 102MB

Tracklist:
1. Rest in Pieces 03:47
2. Machete Happens 05:50
3. Snowhite 05:09
4. Insatiable Lover 07:55
5. Undead Wishes 03:58
6. Bodygrinder 03:41
7. Slay Pride 05:36
8. Dehumanizer 03:34
9. Fire (Endless Silence) 03:48
10. Hunger 04:12
******************************
Total playing time: 47:30




Extended info
Mattia "El Mataio" Martignago - vocals
Alessandro "El Grindo" Pereni - guitar
Mauro "El Cerdo" Brunelli - bass
Pierpaolo "El Pinata" Roccabella - drums



Technical info

Input File: 04. Insatiable Lover.mp3
Channels : 2
Sample Rate : 44100
Precision : 16-bit
Duration : 00:07:55.85 = 20984941 samples = 35688.7 CDDA sectors
File Size : 19.3M
Bit Rate : 324k
Sample Encoding: MPEG audio (layer I, II or III)
Comments :
Title=Insatiable Lover
Artist=Kross of Khaoss
Album=Slay Pride
Tracknumber=4/10
Year=2019
Genre=9
Discnumber=1/1



[ Hidden Text ]