Help - Search - Members - Calendar
Full Version: Голос Омерики - Спорт (2019)
Metal Area - Extreme Music Portal > Releases Area / Релизы > New Releases > Unformat R:
KVRT


*Artist: Голос Омерики
*Album: Спорт
*Year: 2019
*Genre: Punk Rock/Ska
*Country: Russian Federation
*Format: mp3@CBR320kbps
*Size: 109MB

Tracklist:
01 Бибоп и Рокстеди - 4:22
02 Труп невесты - 4:00
03 АНТИЗОЖ - 3:41
04 Весёлая ферма - 3:30
05 Днище - 4:37
06 ОМОН - 3:13
07 Наука - 3:46
08 Ирина - 4:32
09 РЕН ТВ - 4:00
10 Последний герой - 4:03
11 Игра - 3:45
12 Собака-гипнотизёр (bonus) - 2:20
******************************
Total playing time: 45:49

preview 1
preview 2
preview 3

Extended info
Состав Родион Лубенский — вокал, аккордеон, клавиши, слова, музыка
Александр Воробьёв — гитара, банджо, балалайка, бэк-вокал
Сергей Шмельков — бас-гитара, бэк-вокал
Алексей Боев — барабаны
Михаил "Карней" Карнейчик — перкуссия, танцы
Георгий Янковский — скрипка, бэк-вокал

golosomeriki.ru





Technical info

Input File: 07. Наука.mp3
Channels : 2
Sample Rate : 44100
Precision : 16-bit
Duration : 00:03:46.39 = 9983799 samples = 16979.2 CDDA sectors
File Size : 9.13M
Bit Rate : 323k
Sample Encoding: MPEG audio (layer I, II or III)
Comments :
Title=Наука
Artist=Голос Омерики
Album=Спорт
Tracknumber=7/12
Year=2019
Genre=121
Discnumber=1/1



[ Hidden Text ]
zyklon
Песдато, выложи предыдусчий - Хардкор 2017
This is a "lo-fi" version of our main content. To view the full version with more information, formatting and images, please click here.
Invision Power Board © 2001-2021 Invision Power Services, Inc.