Help - Search - Members - Calendar
Full Version: Blakylle - Wo Uralte Wasser Fließen (2019)
Metal Area - Extreme Music Portal > Releases Area / Релизы > Archive
Samaritianin


*Artist: Blakylle
*Album: Wo Uralte Wasser Fließen
*Year: 2019
*Genre: Pagan Metal
*Country: Germany
*Format: mp3@CBR320kbps
*Size: 93MB

Tracklist:
1. Aesir 04:50
2. Wo uralte Wasser fließen 05:31
3. Weiser Mann 05:51
4. Windmal 04:25
5. Der Stab 05:00
6. Die Frauen vom bleichen Wald 04:43
7. Skalde 04:45
8. Wanderer 05:07
******************************
Total playing time: 40:12




Extended info
Sandro Lukaszczyk Guitars, Songwriting, Lyrics
Albert Link Bass, Vocals
Adrian Wagner Vocals
Constantin Drums


Technical info

Input File: 03 - Weiser Mann.mp3
Channels : 2
Sample Rate : 44100
Precision : 16-bit
Duration : 00:05:51.81 = 15514821 samples = 26385.8 CDDA sectors
File Size : 14.3M
Bit Rate : 325k
Sample Encoding: MPEG audio (layer I, II or III)
Comments :
Title=Weiser Mann
Artist=Blakylle
Album=Wo uralte Wasser fließen
Tracknumber=3
Year=2019



[ Hidden Text ]
Samaritianin
Cloud Mail 320
[ Hidden Text ]
This is a "lo-fi" version of our main content. To view the full version with more information, formatting and images, please click here.
Invision Power Board © 2001-2021 Invision Power Services, Inc.