Help - Search - Members - Calendar
Full Version: Northerion - Sky Above//Sea Below (2019)
Metal Area - Extreme Music Portal > Releases Area / Релизы > Archive
Samaritianin


*Artist: Northerion
*Album: Sky Above//Sea Below
*Year: 2019
*Genre: Heavy Metal
*Country: Germany
*Format: mp3@CBR320kbps
*Size: 112MB

Tracklist:
1. Intro 00:54
2. To the Raging Tides 06:08
3. Warriors 07:00
4. Valkyries Wings 04:08
5. Under a Blazing Sky 04:35
6. The Omen of Fire 04:15
7. Now That the Night Falls 04:43
8. Last Alliance 04:12
9. When the Blade for us Will Fall 04:33
10. She, the Ocean 05:40
******************************
Total playing time: 46:08



Extended info
Tim Grogor - vocals
Jorg Saathoff - guitars
Pascal Meinen - guitars
Harald Gerdes - bass
Nikolai Neumayer - drums



Technical info

Input File: 03 Warriors.mp3
Channels : 2
Sample Rate : 44100
Precision : 16-bit
Duration : 00:07:00.99 = 18565483 samples = 31574 CDDA sectors
File Size : 17.7M
Bit Rate : 336k
Sample Encoding: MPEG audio (layer I, II or III)
Comments :
Title=Warriors
Artist=Northerion
Album=Sky Above // Sea Below
Tracknumber=3/10
Year=2019
Genre=Metal
Discnumber=1/1



[ Hidden Text ]
Samaritianin
Cloud Mail 320
[ Hidden Text ]
This is a "lo-fi" version of our main content. To view the full version with more information, formatting and images, please click here.
Invision Power Board © 2001-2020 Invision Power Services, Inc.