Help - Search - Members - Calendar
Full Version: Valac - Leaning Toward Bitter Misery (2019)
Metal Area - Extreme Music Portal > Releases Area / Релизы > Archive
Velmi


*Artist: Valac
*Album: Leaning Toward Bitter Misery
*Year: 2019
*Genre: Raw Black Metal
*Country: United States
*Format: mp3@CBR320kbps
*Size: 73MB

Tracklist:
1. - 02:06
2. Vile Disease 05:14
3. Enshroud The Incurable 05:27
4. Coursing Through Veins 04:50
5. Tainted Blood Spilled From Man 04:02
6. Grasping to Forgotten Spirits 04:12
7. Departure 03:54
8. - 01:44
******************************
Total playing time: 31:29



Technical info

Input File: 01. -.mp3
Channels : 2
Sample Rate : 44100
Precision : 16-bit
Duration : 00:02:06.10 = 5561010 samples = 9457.5 CDDA sectors
File Size : 5.08M
Bit Rate : 322k
Sample Encoding: MPEG audio (layer I, II or III)
Comments :
Title=-
Artist=Valac
Album=Leaning Toward Bitter Misery
Tracknumber=01/08
Year=2019
Genre=Black Metal



[ Hidden Text ]
gena
перезалейте, плз
This is a "lo-fi" version of our main content. To view the full version with more information, formatting and images, please click here.
Invision Power Board © 2001-2020 Invision Power Services, Inc.