Help - Search - Members - Calendar
Full Version: Runenwacht - Gjallar Erschallt (2019)
Metal Area - Extreme Music Portal > Releases Area / Релизы > Archive
Samaritianin


*Artist: Runenwacht
*Album: Gjallar Erschallt
*Year: 2019
*Genre: Black Metal
*Country: Germany
*Format: mp3@CBR320kbps
*Size: 106MB

Tracklist:
1. MG42 02:25
2. Blutgeweiht 04:03
3. Gjallar erschallt 04:48
4. Lied der Seherin 04:31
5. Wilde Jagd 05:36
6. Als das Glück verschwand 05:34
7. Fleischopfer 04:34
8. Exekution Menschheit 05:30
9. Freija heile diese kranke Welt 06:05
10. Fuck Pax Christi 03:17
******************************
Total playing time: 46:23



Extended info
Rex Guitars, Bass, Vocals
Sturmkaiser Drums



Technical info

Input File: 05 - Wilde Jagd.mp3
Channels : 2
Sample Rate : 44100
Precision : 16-bit
Duration : 00:05:36.45 = 14837401 samples = 25233.7 CDDA sectors
File Size : 13.6M
Bit Rate : 323k
Sample Encoding: MPEG audio (layer I, II or III)
Comments :
Title=Wilde Jagd
Artist=Runenwacht
Album=Gjallar Erschallt
Tracknumber=5
Year=2019



[ Hidden Text ]
Samaritianin
Cloud Mail 320
[ Hidden Text ]
vosmidesijatye
Идею лого у Ксастур подтибзили.
garmonbozia
ЦИТАТА(vosmidesijatye @ 12th November 2019 - 16:17:13) *
Идею лого у Ксастур подтибзили.

ценитель, что по музыке то скажешь?
vosmidesijatye
Боевито звучащий блэк с не очень хорошим вокалом.
FlammenTod666
вокал как раз то что надо, гитарок не хватает точно
SSWolf88
Нс метал какой-то, не блэк.
This is a "lo-fi" version of our main content. To view the full version with more information, formatting and images, please click here.
Invision Power Board © 2001-2020 Invision Power Services, Inc.