Help - Search - Members - Calendar
Full Version: Darktower - Obedientia (2019)
Metal Area - Extreme Music Portal > Releases Area / Релизы > Archive
Samaritianin


*Artist: Darktower
*Album: Obedientia
*Year: 2019
*Genre: Black/Death Metal
*Country: Brazil
*Format: mp3@CBR320kbps
*Size: 90MB

Tracklist:
1. Punishment
2. Downfall
3. God Above Nothing
4. Highland Ceremony
5. Winged Snake Communion
6. Praxis Against Ignorance
7. Obedientia
8. Rites of Conscience
9. The Carnal Esplendour
10. ...as the Obedient Marches to the Abyss...
******************************
Total playing time: 41:42



Extended info
R. Ferreira Drums (2006-2016), Vocals (clean) (2006-present), Bass (2016-present)
See also: ex-Belial War, ex-Berkaial, ex-Vociferatus (live)
F. Gonçalves Vocals (2006-present)
See also: ex-Belial War, Uncrowned, ex-Impacto Profano (live), ex-Exhumed Christ
R. Casotto Guitars (2013-present)
See also: ex-Pagan Throne
R. Morais Guitars (2016-present)
R. Grilo Drums (2018-present)
See also: Gutted Souls (live)



Technical info

Input File: 03. God Above Nothing.mp3
Channels : 2
Sample Rate : 44100
Precision : 16-bit
Duration : 00:05:14.20 = 13856000 samples = 23564.6 CDDA sectors
File Size : 12.7M
Bit Rate : 324k
Sample Encoding: MPEG audio (layer I, II or III)
Comments :
Title=God Above Nothing
Artist=DarkTower
Album=Obedientia
Tracknumber=3/10
Year=2019
Genre=17
Discnumber=1/1



[ Hidden Text ]
sta1081
Люблю такой Black-Death (Melodic)
This is a "lo-fi" version of our main content. To view the full version with more information, formatting and images, please click here.
Invision Power Board © 2001-2020 Invision Power Services, Inc.