Help - Search - Members - Calendar
Full Version: Hideous Monarch - The God's Extinction [ep] (2019)
Metal Area - Extreme Music Portal > Releases Area / Релизы > Archive
Samaritianin


*Artist: Hideous Monarch
*Album: The God's Extinction [ep]
*Year: 2019
*Genre: Death Metal
*Country: Brazil
*Format: mp3@CBR320kbps
*Size: 50MB

Tracklist:
1. Cult of Self Flagellation 05:36
2. Heretic 04:39
3. Hatred Embryo 04:36
4. Divine Execution 03:42
5. ...and Immortals Shall Rise (Rebaelliun cover) 02:46
******************************
Total playing time: 21:19




Extended info
Julian Acosta Bass
Iuri Ravel Drums
Ivan Lopes Guitars
Stefan Santos Guitars
Claudio Cardoso Vocals


Technical info

Input File: 03 - Hatred Embryo.mp3
Channels : 2
Sample Rate : 44100
Precision : 16-bit
Duration : 00:04:36.47 = 12192283 samples = 20735.2 CDDA sectors
File Size : 11.2M
Bit Rate : 324k
Sample Encoding: MPEG audio (layer I, II or III)
Comments :
Title=Hatred Embryo
Artist=Hideous Monarch
Album=The God's Extinction
Tracknumber=3
Year=2019-11-08
Discnumber=1



[ Hidden Text ]
Razorbladeswaltz
отличный релиз. ожидал здесь рецуху defamer'а увидеть. он обычно в годном дэтхе отмечается стабильно)
This is a "lo-fi" version of our main content. To view the full version with more information, formatting and images, please click here.
Invision Power Board © 2001-2020 Invision Power Services, Inc.