Help - Search - Members - Calendar
Full Version: Hyperborea - Umbra (2019)
Metal Area - Extreme Music Portal > Releases Area / Релизы > Archive
necroscum


*Artist: Hyperborea
*Album: Umbra
*Year: 2019
*Genre: Death Metal
*Country: Bulgaria
*Format: mp3@CBR320kbps
*Size: 99MB

Tracklist:
01. Jung's Forewarning 01:13
02. Home of My Misery 04:00
03. From Within 04:49
04. Silent Stream 05:40
05. Supermacists 03:17
06. Two Extremities 04:46
07. Unwelcome 05:19
08. Wrong Planet Syndrome 05:50
09. Atavistic Fear 07:30
******************************
Total playing time: 42:24





Technical info

Input File: 02. Home of My Misery.mp3
Channels : 2
Sample Rate : 44100
Precision : 16-bit
Duration : 00:03:59.92 = 10580516 samples = 17994.1 CDDA sectors
File Size : 9.87M
Bit Rate : 329k
Sample Encoding: MPEG audio (layer I, II or III)
Comments :
Title=Home of My Misery
Artist=Hyperborea
Album=Umbra
Tracknumber=2
Year=2019-11-15
Genre=Metal
Discnumber=1



[ Hidden Text ]
Paradayz
Классный альбом, молодцы болгары!
Contageon
Понравилось!
Язва
Судя по моим же отзывам, раньше болгары мне больше нравились.
На третьем лонгплее слышу довольно заурядный death metal, сыгранный однако качественно и по канонам, но без огонька и изюминки.
Скорее 7/10, чем 8/10
KVRT
[ Hidden Text ]
This is a "lo-fi" version of our main content. To view the full version with more information, formatting and images, please click here.
Invision Power Board © 2001-2021 Invision Power Services, Inc.