Help - Search - Members - Calendar
Full Version: Dusteroid - Stellarium (2019)
Metal Area - Extreme Music Portal > Releases Area / Релизы > Archive
TDM


*Artist: Dusteroid
*Album: Stellarium
*Year: 2019
*Genre: Stoner Metal/Rock
*Country: United Kingdom
*Format: mp3@CBR320kbps
*Size: 101MB

Tracklist:
01. Groundhog 04:35
02. The Buddhist 05:14
03. The More 06:34
04. Animal 05:46
05. Hell Is Other People 06:26
06. Long Way Out 09:39
07. Zorba 06:00
******************************
Total playing time: 44:14



Technical info

Input File: 03 - The More.mp3
Channels : 2
Sample Rate : 44100
Precision : 16-bit
Duration : 00:06:34.08 = 17379016 samples = 29556.1 CDDA sectors
File Size : 15.8M
Bit Rate : 321k
Sample Encoding: MPEG audio (layer I, II or III)
Comments :
Title=The More
Artist=Dusteroid
Album=Stellarium
Tracknumber=3
Year=2019
Genre=Stoner Metal/Rock



[ Hidden Text ]
Kehl05
Опять от тебя неформат.

С бк группы Tags
rock booze heavy rock stoner rock London

Всякие переливалы с сайтов в мп3 без муз образования лучше в музыке разбираются,чем музыканты.Не считай себя умнее,чем ты есть на самом деле 1488.gif
TDM
Группа даже на metal-archives есть.
Пока дурачок тут только ты.
SatanicPanzer
ЦИТАТА(Kehl05 @ Nov 18 2019, 01:18:13) *
Опять от тебя неформат.

С бк группы Tags
rock booze heavy rock stoner rock London

Всякие переливалы с сайтов в мп3 без муз образования лучше в музыке разбираются,чем музыканты.Не считай себя умнее,чем ты есть на самом деле 1488.gif

Скрипты бунтуют, того и гляди устроят революцию на портале! 1488.gif
Tular
Форматность обсуждаема, но без метала не обошлось, как по мне.

ЦИТАТА(Kehl05 @ 18th November 2019 - 01:18:13) *
без муз образования

В каком вузе есть факультет стоунера?
vosmidesijatye
Да это тролль, раньше около каждого релиза Самаритянина и Олежыща тёрся, обвиняя их в том же самом, в чем щас винит TDM 15.gif
TDM
он еще порцайку помёта отгрузил в топике KoreanGringo - Kucoshka (кажется так пишется)
vosmidesijatye
ЦИТАТА(TDM @ Nov 18 2019, 12:37:02) *
он еще порцайку помёта отгрузил в топике KoreanGringo - Kucoshka (кажется так пишется)


Видать, на Солнце наблюдалась зело мощная активность 1488.gif
TDM
ЦИТАТА(Tular @ Nov 18 2019, 12:24:37) *
Форматность обсуждаема, но без метала не обошлось, как по мне.

тут частый случай пограничного стоунер рока-стоунер метала и booze тоже есть
слышу тут и то, и другое, и третье 1488.gif
vosmidesijatye
Да есть здесь и метала и рока, об чем вообще базлан, все верно.
Tular
ЦИТАТА(TDM @ 18th November 2019 - 12:38:46) *
тут частый случай пограничного стоунер рока-стоунер метала и booze тоже есть

Ну да, не раз уже было, хочешь залить стоунер-металовый альбом, который есть на архивах, а потом слушаешь — и внутренний модератор банит. Или наоборот, вопреки официальным источникам, метал в тегах пишешь и релиз оформляешь.
vosmidesijatye
ЦИТАТА(Tular @ Nov 18 2019, 13:53:11) *
Ну да, не раз уже было, хочешь залить стоунер-металовый альбом, который есть на архивах, а потом слушаешь — и внутренний модератор банит. Или наоборот, вопреки официальным источникам, метал в тегах пишешь и релиз оформляешь.


Действовать как Эстетик надобно - везде митал писать, не промахнёшься 25.gif 1488.gif
This is a "lo-fi" version of our main content. To view the full version with more information, formatting and images, please click here.
Invision Power Board © 2001-2020 Invision Power Services, Inc.