Help - Search - Members - Calendar
Full Version: Bloody Violence - Host (2019)
Metal Area - Extreme Music Portal > Releases Area / Релизы > Archive
Samaritianin


*Artist: Bloody Violence
*Album: Host
*Year: 2019
*Genre: Technical Death Metal
*Country: Brazil
*Format: mp3@CBR320kbps
*Size: 82MB

Tracklist:
01. Decompression Sickness
02. Visceral Memories
03. The White Box
04. Whispers of Anguish
05. Necessary Evil
06. Hosting the Unknown
07. Unfit Thought Processes
08. Deformed Primal Perception
******************************
Total playing time: 35:23





Extended info
Israel Savaris Bass (2013-present), Vocals (2015-present)
See also: Four Dead Passengers, The Jokke
Eduardo Polidori Drums (2013-2015, 2016-present)
See also: ex-Ankh
Igor Dornelles Guitars (2013-present), Vocals (2015-present)
See also: The Jokke


Technical info

Input File: 04 - Whispers of Anguish.mp3
Channels : 2
Sample Rate : 44100
Precision : 16-bit
Duration : 00:06:39.70 = 17626550 samples = 29977.1 CDDA sectors
File Size : 16.1M
Bit Rate : 323k
Sample Encoding: MPEG audio (layer I, II or III)
Comments :
Title=Whispers of Anguish
Artist=Bloody Violence
Album=Host
Tracknumber=4
Year=2019-12-03
Discnumber=1



[ Hidden Text ]
kessler
Необычно.
This is a "lo-fi" version of our main content. To view the full version with more information, formatting and images, please click here.
Invision Power Board © 2001-2021 Invision Power Services, Inc.