Help - Search - Members - Calendar
Full Version: Trvth - Inordinate And Surpassing (2019)
Metal Area - Extreme Music Portal > Releases Area / Релизы > Archive
necroscum


*Artist: Trvth
*Album: Inordinate And Surpassing
*Year: 2019
*Genre: Atmospheric/Depressive Black Metal
*Country: United States
*Format: mp3@CBR320kbps
*Size: 125MB

Tracklist:
01. Breathing in Time 06:06
02. Standing in Place 04:16
03. Tu Testum 05:09
04. From the Sky 04:52
05. On the Cusp 08:38
06. Wake Up 04:24
07. What on Earth 05:45
08. Fuliginous Mind 05:57
09. Formulaic Emotions 01:22
10. Blurry 07:49
******************************
Total playing time: 54:18




Technical info

Input File: 03. Tu Testum.mp3
Channels : 2
Sample Rate : 44100
Precision : 16-bit
Duration : 00:05:09.62 = 13654242 samples = 23221.5 CDDA sectors
File Size : 12.5M
Bit Rate : 323k
Sample Encoding: MPEG audio (layer I, II or III)
Comments :
Title=Tu Testum
Artist=Trvth
Album=Inordinate and Surpassing
Tracknumber=3
Year=2019



[ Hidden Text ]
KVRT
ЦИТАТА(necroscum @ Dec 13 2019, 13:52:42) *
*Genre: Atmospheric/Depressive Black Metal

false 23.gif
This is a "lo-fi" version of our main content. To view the full version with more information, formatting and images, please click here.
Invision Power Board © 2001-2021 Invision Power Services, Inc.