Help - Search - Members - Calendar
Full Version: Zonal - Wrecked (2019)
Metal Area - Extreme Music Portal > Releases Area / Релизы > New Releases > Unformat R:
as71


*Artist: Zonal
*Album: Wrecked
*Year: 2019
*Genre: Industrial/Dub/Experimental/Hip-Hop
*Country: United Kingdom
*Format: mp3@CBR320kbps
*Size: 147MB

Tracklist:
01. Body Of Wire (feat. Moor Mother) 04:55
02. In A Cage (feat. Moor Mother) 05:30
03. System Error (feat. Moor Mother) 04:09
04. Medulla (feat. Moor Mother) 07:56
05. Catalyst (feat. Moor Mother) 06:17
06. No Investigation (feat. Moor Mother) 04:09
07. Wrecked 06:30
08. Debris 04:39
09. Black Hole Orbit 04:27
10. S.O.S. 05:50
11. Alien Within 04:34
12. Stargazer 04:47
******************************
Total playing time: 1:03:43





Extended info
ZONAL, the brainchild of Justin Broadrick (Godflesh/Jesu/JK Flesh) and Kevin Martin (The Bug/Ming Midas Sound) present their monumental Relapse Records debut, "Wrecked". ZONAL continues where their previous collaboration Techno Animal left off, and combines a brutal ongoing obsession with beats, bass, dub, drone, noise and riff.

Новый альбом Джастина Бродрика и Кевина Мартина. Любителям Techno Animal, Ice и прочих экспериментов этих персонажей, если таковые тут есть, рекомендую ознакомиться. Альбом, кстати, вышел на Relapse Records/Daymare Recordings.


Technical info

Input File: 08 - Debris.mp3
Channels : 2
Sample Rate : 44100
Precision : 16-bit
Duration : 00:04:38.69 = 12290317 samples = 20901.9 CDDA sectors
File Size : 11.1M
Bit Rate : 320k
Sample Encoding: MPEG audio (layer I, II or III)
Comments :
Title=Debris
Artist=Zonal
Album=Wrecked
Tracknumber=08
Year=2019
Genre=Industrial/Illbient/Dub/Hip-Hop



[ Hidden Text ]
garmonbozia
ЦИТАТА(as71 @ 14th December 2019 - 02:51:41) *
Moor Mother

жаль шесть оставшихся треков без неё, хотя в принципе сойдёт за немое послесловие.
слушайте электронную музыку, йоу!
Ghostb
Это может быть интересно.
This is a "lo-fi" version of our main content. To view the full version with more information, formatting and images, please click here.
Invision Power Board © 2001-2020 Invision Power Services, Inc.