*Artist: Witnesses
*Album: Iii
*Year: 2019
*Genre: Ambient/Electronic, Melodic Doom Metal
*Country: United States
*Format: mp3@CBR320kbps
*Size: 103MB

Tracklist:
1.Introduction 01:30
2.The First Part 11:42
3.The Second Part 06:20
4.The Third Part 09:47
5.The Fourth Part 03:07
6.The Fifth Part 04:03
7.The Sixth Part 04:39
8.The Seventh Part 03:14
******************************
Total playing time: 44:22



Extended info
Line - up:
Greg Schwan - Lyrics, Songwriting (ex-Forty Days Longing, ex-While Heaven Wept)

Guest/Session:
Gabbi Coenen - Vocals
Matthew Kozar - Guitars (additional) (Brave, ex-Forty Days Longing)


Technical info

Input File: 07. the sixth part.mp3
Channels : 2
Sample Rate : 44100
Precision : 16-bit
Duration : 00:04:39.24 = 12314528 samples = 20943.1 CDDA sectors
File Size : 11.2M
Bit Rate : 321k
Sample Encoding: MPEG audio (layer I, II or III)
Comments :
Title=the sixth part
Artist=Witnesses
Album=III
Tracknumber=7
Year=2019
Genre=Ambient/Electronic, Melodic Doom Metal



[ Hidden Text ]